Секс видео чаты

Бонго видеочат


Бонго видеочат собрал самых горячих девушек, и теперь ждет тебя в бонго чате...
Читать далее

Порно видео чаты


Популярность порно видео чатов растет с каждым днем, словно на дрожжах...
Читать далее
Поиск

Dont Let Daddy Know 8 XviD-SWE6RUS

 Dont Let Daddy Know 8 XviD-SWE6RUS
Description:

When dad`s away, these horny little girls love to play... With a hard dick! Maybe dad was too strict, maybe dad was too loose. Whatever the case, THANK YOU DAD!
Category
: All Sex, HD - Shot In High Def, Legal Teen, Red Light District's Don't Let Daddy Know Series

Director: Mark Wood

Starring: Mark Wood, Christian, Johnny Castle, Talon, Ashlyn Rae, Isis Taylor, Lana Violet, Miley Ann, Miranda Wrights


Video
Format
: MPEG-4 Visual

Format profile: Streaming Video@L1

Format settings, BVOP: Yes

Format settings, QPel: No

Format settings, GMC: No warppoints

Format settings, Matrix: Default

Codec ID: XVID

Codec ID/Hint: XviD

Duration: 1h 9mn

Bit rate: 1 258 Kbps

Width: 512 pixels

Height: 288 pixels

Display aspect ratio: 16/9

Frame rate: 29.970 fps

Resolution: 24 bits

Colorimetry: 4:2:0

Scan type: Progressive

Bits/(Pixel*Frame): 0.285

Stream size: 630 MiB (90%)

Writing library: XviD 1.1.2 (UTC 2006-11-01)

Audio
Format
: MPEG Audio

Format version: Version 1

Format profile: Layer 3

Codec ID: 55

Codec ID/Hint: MP3

Duration: 1h 9mn

Bit rate mode: Variable

Bit rate: 125 Kbps

Channel(s): 2 channels

Sampling rate: 48.0 KHz

Resolution: 16 bits

Stream size: 62.6 MiB (9%)

Alignment: Aligned on interleaves

Interleave, duration: 24 ms (0.72 video frame)

Interleave, preload duration: 470 ms





Скачать через торрент Dont Let Daddy Know 8 XviD-SWE6RUS (110,01 Kb), скачали: 78
Magnet ссылка
Сиды:  34 
Пиры:  41 
Общий размер: 1,36 Gb
SHA Hash: 8a64936b8724b92df39d0e392cc176c26085558f


Список файлов (3)